<?xml version="1.0" standalone="no"?>
<!DOCTYPE svg PUBLIC "-//W3C//DTD SVG 1.1//EN" "http://www.w3.org/Graphics/SVG/1.1/DTD/svg11.dtd" >
<svg xmlns="http://www.w3.org/2000/svg">
<metadata>
This is a custom SVG font generated by IcoMoon.</metadata>
<defs>
<font id="Cuticons" horiz-adv-x="512" >
<font-face units-per-em="512" ascent="480" descent="-32" />
<missing-glyph horiz-adv-x="512" />
<glyph unicode="&#x21;" d="M 256.032-31.936L 256.032,479.936 C 256.032,479.936, 512.00,288.00, 512.00,224.00C 512.00,152.00, 256.032-31.936, 256.032-31.936z
	 M0.00,288.00l 256.00,0.00 l0.00-128.00 L0.00,160.00 L0.00,288.00 z" />
<glyph unicode="&#x22;" d="M 256.00,160.00L 256.00,288.00 l 256.00,0.00 l0.00-128.00 L 256.00,160.00 z M0.00,224.00c0.00,64.00, 255.968,255.936, 255.968,255.936l0.00-511.872 C 255.968-31.936,0.00,152.00,0.00,224.00
	z" />
<glyph unicode="&#x23;" d="M 511.936,224.032L 0.064,224.032 C 0.064,224.032, 192.00,480.00, 256.00,480.00C 328.00,480.00, 511.936,224.032, 511.936,224.032z
	 M 192.00-32.00l 0.00,256.00 l 128.00,0.00 L 320.00-32.00 L 192.00-32.00 z" />
<glyph unicode="&#x24;" d="M 192.00,480.00l 128.00,0.00 l0.00-256.00 L 192.00,224.00 L 192.00,480.00 z M 256.00-32.00c-72.00,0.00-255.936,255.968-255.936,255.968l 511.872,0.00 
	C 511.936,223.968, 320.00-32.00, 256.00-32.00z" />
<glyph unicode="&#x25;" d="M 512.00,160.00l-192.00,0.00 l0.00-192.00 L 192.00-32.00 l0.00,192.00 L0.00,160.00 L0.00,288.00 l 192.00,0.00 L 192.00,480.00 l 128.00,0.00 l0.00-192.00 l 192.00,0.00 L 512.00,160.00 z" />
<glyph unicode="&#x26;" d="M0.00,288.00l 512.00,0.00 l0.00-128.00 L0.00,160.00 L0.00,288.00 z" />
<glyph unicode="&#x27;" d="M 384.00-32.00L 384.00,480.00 l 96.00,0.00 l0.00-512.00 L 384.00-32.00 z M 256.00,352.00l 96.00,0.00 l0.00-384.00 L 256.00-32.00 L 256.00,352.00 z M 128.00,224.00l 96.00,0.00 l0.00-256.00 L 128.00-32.00 L 128.00,224.00 z M0.00,96.00l 96.00,0.00 l0.00-128.00 L0.00-32.00 L0.00,96.00 z" />
<glyph unicode="&#x28;" d="M 550.661,246.752C 492.828,329.636, 396.928,384.004, 288.191,384.004C 179.742,384.004, 84.094,329.923, 26.177,247.388
	L 0.671,268.411C 64.64,357.659, 169.086,415.995, 287.424,415.995c 119.009,0.00, 224.03-58.971, 287.904-149.058L 550.661,246.752z M 288.191,319.999c 88.768,0.00, 166.941-45.211, 212.859-113.855
	l-24.451-20.005C 436.806,247.268, 367.491,287.996, 288.191,287.996C 209.084,287.996, 139.901,247.484, 100.059,186.691L 75.644,206.755C 121.634,275.039, 199.651,319.999, 288.191,319.999z M 288.191,224.003
	c 58.30,0.00, 108.797-32.314, 136.772-80.066l-24.356-19.933C 379.069,164.289, 337.058,192.00, 288.191,192.00c-48.735,0.00-90.65-27.556-112.261-67.685L 151.587,144.32
	C 179.61,191.869, 230.011,224.003, 288.191,224.003z M 288.191,127.995c 29.054,0.00, 53.314-19.489, 61.117-46.014L 288.191,31.999l-61.057,50.173C 235.009,108.638, 259.233,127.995, 288.191,127.995z" horiz-adv-x="575.3280029296875" />
<glyph unicode="&#x29;" d="M 256.00,160.00L 256.00,288.00 c0.00,0.00, 128.00-48.00, 128.00-64.00C 384.00,206.016, 256.00,160.00, 256.00,160.00z M 192.00-32.00l0.00,160.00 l 32.00,0.00 l0.00-128.00 l 192.00,0.00 L 416.00,448.00 L 224.00,448.00 l0.00-128.00 L 192.00,320.00 L 192.00,480.00 l 320.00,0.00 l0.00-512.00 L 192.00-32.00 z
	 M 256.00,192.00L0.00,192.00 L0.00,256.00 l 256.00,0.00 L 256.00,192.00 z" />
<glyph unicode="&#x2a;" d="M0.00-32.00l0.00,64.00 l 512.00,0.00 l0.00-64.00 L0.00-32.00 z M 256.00,96.00c-54.016,0.00-191.968,192.00-191.968,192.00l 383.936,0.00 C 447.968,288.00, 304.00,96.00, 256.00,96.00z
	 M 192.00,480.00l 128.00,0.00 l0.00-192.00 L 192.00,288.00 L 192.00,480.00 z" />
<glyph unicode="&#x2b;" d="M 352.00-32.00L 160.00-32.00 c-53.024,0.00-96.00,43.008-96.00,96.00L 64.00,384.00 c0.00,53.024, 42.976,96.00, 96.00,96.00l 192.00,0.00 c 52.992,0.00, 96.00-42.976, 96.00-96.00l0.00-320.00 
	C 448.00,11.008, 404.992-32.00, 352.00-32.00z M 256.00,0.00c 17.696,0.00, 32.00,14.304, 32.00,32.00s-14.304,32.00-32.00,32.00s-32.00-14.304-32.00-32.00S 238.304,0.00, 256.00,0.00z M 288.00,448.00L 224.00,448.00 l0.00-32.00 l 64.00,0.00 L 288.00,448.00 z M 416.00,384.00L 96.00,384.00 l0.00-288.00 l 320.00,0.00 L 416.00,384.00 z
	 M 128.00,256.00L 128.00,352.00 l 96.00,0.00 L 128.00,256.00z" />
<glyph unicode="&#x2c;" d="M 384.00-32.00L 128.00-32.00 c-53.024,0.00-96.00,43.008-96.00,96.00L 32.00,384.00 c0.00,53.024, 42.976,96.00, 96.00,96.00l 224.00,0.00 c 52.992,0.00, 128.00-42.976, 128.00-96.00l0.00-320.00 
	C 480.00,11.008, 436.992-32.00, 384.00-32.00z M 256.00,0.00c 17.696,0.00, 32.00,14.304, 32.00,32.00s-14.304,32.00-32.00,32.00s-32.00-14.304-32.00-32.00S 238.304,0.00, 256.00,0.00z M 288.00,448.00L 224.00,448.00 l0.00-32.00 l 64.00,0.00 L 288.00,448.00 z M 448.00,384.00L 64.00,384.00 l0.00-288.00 l 384.00,0.00 L 448.00,384.00 z
	 M 96.00,224.00L 96.00,352.00 l 128.00,0.00 L 96.00,224.00z" />
<glyph unicode="&#x2d;" d="M 288.00,96.00l0.00-32.00 l 96.00,0.00 l0.00-64.00 L 128.00,0.00 l0.00,64.00 l 96.00,0.00 l0.00,32.00 L0.00,96.00 L0.00,448.00 l 512.00,0.00 l0.00-352.00 L 288.00,96.00 z M 480.00,416.00L 32.00,416.00 l0.00-256.00 l 448.00,0.00 L 480.00,416.00 z M 64.00,288.992L 64.00,384.00 l 96.00,0.00 L 64.00,288.992z" />
<glyph unicode="&#x2e;" d="M0.00,128.00l 128.00,256.00l 96.00-160.00l 160.00,192.00l-64.00,64.00l 192.00,0.00 l0.00-192.00 l-64.00,64.00l-224.00-264.00L 128.00,224.00l-128.00-256.00L0.00,128.00 z" />
<glyph unicode="&#x2f;" d="M0.00-32.00c0.00,0.00, 96.00,224.00, 160.00,224.00s 32.00-32.00, 96.00-32.00s 32.00,32.00, 96.00,32.00s 160.00-224.00, 160.00-224.00L0.00-32.00 z M 256.00,224.00C 185.312,224.00, 128.00,281.312, 128.00,352.00
	s 57.312,128.00, 128.00,128.00s 128.00-57.312, 128.00-128.00S 326.688,224.00, 256.00,224.00z M 224.00,416.00L 160.00,416.00 l0.00-64.00 l 64.00,0.00 L 224.00,416.00 z M 192.00,320.00l0.00-32.00 l 32.00,0.00 l0.00-32.00 l 64.00,0.00 L 288.00,288.00 l 32.00,0.00 L 320.00,320.00 L 192.00,320.00 z M 352.00,416.00L 288.00,416.00 l0.00-64.00 l 64.00,0.00 L 352.00,416.00 z" />
<glyph unicode="&#x30;" d="M 256.512-32.00c0.00,0.00-256.992,128.00-256.992,320.00s 64.992,192.00, 128.992,192.00s 128.00-96.00, 128.00-96.00s 64.00,96.00, 128.00,96.00s 128.00,0.00, 128.00-192.00
	S 256.512-32.00, 256.512-32.00z" />
<glyph unicode="&#x31;" d="M 256.512-32.00c0.00,0.00-9.664,4.832-25.056,13.888L 352.512,224.00l-128.00,96.00l 58.432,97.408
	C 307.488,445.152, 345.888,480.00, 384.512,480.00c 64.00,0.00, 128.00,0.00, 128.00-192.00S 256.512-32.00, 256.512-32.00z M 160.512,288.00l 128.00-64.00l-60.064-240.32C 161.984,23.20-0.512,135.20-0.512,288.00
	c0.00,192.00, 64.992,192.00, 128.992,192.00C 150.592,480.00, 172.544,468.256, 192.00,453.28L 160.512,288.00z" />
<glyph unicode="&#x32;" d="M 512.00,96.00l0.00-128.00 l-128.00,0.00 l0.00,32.00 L 128.00,0.00 l0.00-32.00 L0.00-32.00 l0.00,128.00 l 32.00,0.00 L 32.00,352.00 L0.00,352.00 L0.00,480.00 l 128.00,0.00 l0.00-32.00 l 256.00,0.00 L 384.00,480.00 l 128.00,0.00 l0.00-128.00 l-32.00,0.00 l0.00-256.00 L 512.00,96.00 z M 416.00,352.00l-32.00,0.00 L 384.00,384.00 L 128.00,384.00 l0.00-32.00 L 96.00,352.00 l0.00-256.00 l 32.00,0.00 l0.00-32.00 l 256.00,0.00 
	l0.00,32.00 l 32.00,0.00 L 416.00,352.00 z" />
<glyph unicode="&#x33;" d="M 256.00-32.00c-141.376,0.00-256.00,114.624-256.00,256.00c0.00,141.376, 114.624,256.00, 256.00,256.00s 256.00-114.624, 256.00-256.00
	C 512.00,82.624, 397.376-32.00, 256.00-32.00z M 256.00,416.00C 149.984,416.00, 64.00,330.016, 64.00,224.00s 85.984-192.00, 192.00-192.00s 192.00,85.984, 192.00,192.00S 362.016,416.00, 256.00,416.00z M 288.00,96.00L 224.00,96.00 L 224.00,192.00 L 128.00,192.00 L 128.00,256.00 l 96.00,0.00 L 224.00,352.00 l 64.00,0.00 l0.00-96.00 l 96.00,0.00 l0.00-64.00 L 288.00,192.00 L 288.00,96.00 z" />
<glyph unicode="&#x34;" d="M 256.00-32.00c-141.376,0.00-256.00,114.624-256.00,256.00c0.00,141.376, 114.624,256.00, 256.00,256.00s 256.00-114.624, 256.00-256.00
	C 512.00,82.624, 397.376-32.00, 256.00-32.00z M 256.00,416.00C 149.984,416.00, 64.00,330.016, 64.00,224.00s 85.984-192.00, 192.00-192.00s 192.00,85.984, 192.00,192.00S 362.016,416.00, 256.00,416.00z M 128.00,256.00l 256.00,0.00 l0.00-64.00 L 128.00,192.00 L 128.00,256.00 z" />
<glyph unicode="&#x35;" d="M 64.00,416.00L 384.00,416.00L 384.00,480.00L0.00,480.00L0.00,416.00L0.00,32.00L0.00-32.00L 384.00-32.00L 384.00,32.00L 64.00,32.00 	zM 480.00,384.00L 272.00,176.00L 192.00,256.00L 160.00,256.00L 160.00,224.00L 256.00,128.00L 288.00,128.00L 512.00,352.00L 512.00,384.00 	z" />
<glyph unicode="&#x36;" d="M-0.067-31.935l 319.995,512.002l 319.995-512.002L-0.067-31.935 z M 351.938,352.093l-63.994,0.00 l0.00-224.058 l 63.994,0.00 L 351.938,352.093 z
	 M 287.931,96.038L 287.931,32.005 l 63.994,0.00 l0.00,64.034 L 287.931,96.038 z" horiz-adv-x="639.9359741210938" />
<glyph unicode="&#x37;" d="M 416.00,96.00L 288.00,96.00 l-224.00-128.00l 64.00,128.00L 96.00,96.00 c-53.024,0.00-96.00,46.88-96.00,104.704L0.00,375.296 C0.00,433.12, 42.976,480.00, 96.00,480.00l 320.00,0.00 
	c 52.992,0.00, 96.00-46.88, 96.00-104.704l0.00-174.56 C 512.00,142.88, 468.992,96.00, 416.00,96.00z" />
<glyph unicode="&#x38;" d="M 416.00,96.00L 288.00,96.00 l-224.00-128.00l 64.00,128.00L 96.00,96.00 c-53.024,0.00-96.00,46.88-96.00,104.704L0.00,375.296 C0.00,433.12, 42.976,480.00, 96.00,480.00l 320.00,0.00 
	c 52.992,0.00, 96.00-46.88, 96.00-104.704l0.00-174.56 C 512.00,142.88, 468.992,96.00, 416.00,96.00z M 96.00,352.00C 60.672,352.00, 32.00,323.328, 32.00,288.00s 28.672-64.00, 64.00-64.00s 64.00,28.672, 64.00,64.00S 131.328,352.00, 96.00,352.00z M 256.00,352.00
	C 220.672,352.00, 192.00,323.328, 192.00,288.00s 28.672-64.00, 64.00-64.00s 64.00,28.672, 64.00,64.00S 291.328,352.00, 256.00,352.00z M 415.008,352.00c-35.872,0.00-64.992-28.672-64.992-64.00s 29.12-64.00, 64.992-64.00
	C 450.912,224.00, 480.00,252.672, 480.00,288.00S 450.912,352.00, 415.008,352.00z" />
<glyph unicode="&#x39;" d="M 32.00-32.00l0.00,32.00 l 448.00,0.00 L 480.00,448.00 l 32.00,0.00 l0.00-448.00 l0.00-32.00 L 32.00-32.00 z M 448.00,32.00L 32.00,32.00 l0.00-32.00 L0.00,0.00 l0.00,32.00 L0.00,480.00 l 158.016,0.00 l0.00-222.016 L 224.00,328.00l 62.016-70.016L 288.00,480.00l 160.00,0.00 
	l 32.00,0.00 l0.00-32.00 l-32.00,0.00 L 448.00,32.00 z" />
<glyph unicode="&#x3a;" d="M 384.00-32.00L 128.00-32.00 c-53.024,0.00-96.00,43.008-96.00,96.00L 32.00,224.00 c0.00,53.024, 42.976,96.00, 96.00,96.00l 32.00,0.00 L 160.00,448.00 l 32.00,0.00 l0.00-128.00 l 128.00,0.00 L 320.00,448.00 l 32.00,0.00 l0.00-128.00 l 32.00,0.00 
	c 53.024,0.00, 96.00-42.976, 96.00-96.00l0.00-160.00 C 480.00,11.008, 437.024-32.00, 384.00-32.00z M 288.00,151.136L 288.00,256.00 L 224.00,256.00 l0.00-104.864 C 204.928,140.032, 192.00,119.616, 192.00,96.00c0.00-35.328, 28.672-64.00, 64.00-64.00
	s 64.00,28.672, 64.00,64.00C 320.00,119.616, 307.072,140.032, 288.00,151.136z M 192.00,480.00l 128.00,0.00 l0.00-32.00 L 192.00,448.00 L 192.00,480.00 z" />
<glyph unicode="&#x3b;" d="M 384.00-32.00L 128.00-32.00 c-53.024,0.00-96.00,43.008-96.00,96.00L 32.00,224.00 c0.00,53.024, 42.976,96.00, 96.00,96.00l 32.00,0.00 L 160.00,448.00 l 32.00,0.00 l0.00-128.00 l 192.00,0.00 
	c 53.024,0.00, 96.00-42.976, 96.00-96.00l0.00-160.00 C 480.00,11.008, 437.024-32.00, 384.00-32.00z M 288.00,151.136L 288.00,256.00 L 224.00,256.00 l0.00-104.864 C 204.928,140.032, 192.00,119.616, 192.00,96.00c0.00-35.328, 28.672-64.00, 64.00-64.00
	s 64.00,28.672, 64.00,64.00C 320.00,119.616, 307.072,140.032, 288.00,151.136z M 320.00,480.00l0.00-32.00 L 192.00,448.00 L 192.00,480.00 L 320.00,480.00 z M 352.00,384.00l-32.00,0.00 L 320.00,448.00 l 32.00,0.00 L 352.00,384.00 z" />
<glyph unicode="&#x3c;" d="M0.00-32.00L0.00,480.00 l 480.00,0.00 l0.00-512.00 L0.00-32.00 z M 320.00,0.00l 32.00,0.00 l0.00,64.00 l-32.00,0.00 L 320.00,0.00 z M 256.00,0.00l 32.00,0.00 l0.00,64.00 L 256.00,64.00 L 256.00,0.00 z M 192.00,0.00l 32.00,0.00 l0.00,64.00 L 192.00,64.00 L 192.00,0.00 z M 128.00,0.00l 32.00,0.00 
	l0.00,64.00 L 128.00,64.00 L 128.00,0.00 z M 64.00,0.00l 32.00,0.00 l0.00,64.00 L 64.00,64.00 L 64.00,0.00 z M 96.00,448.00L 64.00,448.00 l0.00-64.00 l 32.00,0.00 L 96.00,448.00 z M 160.00,448.00L 128.00,448.00 l0.00-64.00 l 32.00,0.00 L 160.00,448.00 z M 224.00,448.00L 192.00,448.00 l0.00-64.00 l 32.00,0.00 L 224.00,448.00 z M 288.00,448.00L 256.00,448.00 l0.00-64.00 l 32.00,0.00 L 288.00,448.00 z M 352.00,448.00l-32.00,0.00 l0.00-64.00 l 32.00,0.00 L 352.00,448.00 z M 416.00,448.00l-32.00,0.00 l0.00-64.00 l 32.00,0.00 L 416.00,448.00 z M 416.00,352.00L 64.00,352.00 l0.00-256.00 l 352.00,0.00 
	L 416.00,352.00 z M 416.00,64.00l-32.00,0.00 l0.00-64.00 l 32.00,0.00 L 416.00,64.00 z" />
<glyph unicode="&#x3d;" d="M 416.00-32.00L 96.00-32.00 c-53.024,0.00-96.00,43.008-96.00,96.00L0.00,256.00 c0.00,53.024, 42.976,96.00, 96.00,96.00L 96.00,480.00 l 160.00,0.00 l0.00-128.00 l 64.00,0.00 L 320.00,384.00 l 96.00,0.00 l0.00-32.00 
	c 53.024,0.00, 96.00-42.976, 96.00-96.00l0.00-192.00 C 512.00,11.008, 469.024-32.00, 416.00-32.00z M 224.00,448.00L 128.00,448.00 l0.00-96.00 l 96.00,0.00 L 224.00,448.00 z M 384.00,288.00L 64.00,288.00 l0.00-256.00 l 320.00,0.00 L 384.00,288.00 z M 480.00,288.00l-64.00,0.00 l0.00-64.00 l 64.00,0.00 L 480.00,288.00 z M 480.00,192.00l-64.00,0.00 l0.00-32.00 l 64.00,0.00 L 480.00,192.00 z M 480.00,128.00l-64.00,0.00 l0.00-32.00 l 64.00,0.00 
	L 480.00,128.00 z M 96.00,128.00L 96.00,256.00 l 128.00,0.00 L 96.00,128.00z" />
<glyph unicode="&#x3e;" d="M 416.00-32.00L 96.00-32.00 c-53.024,0.00-96.00,43.008-96.00,96.00L0.00,256.00 c0.00,53.024, 42.976,96.00, 96.00,96.00L 96.00,384.00 l 96.00,0.00 l0.00-32.00 l 64.00,0.00 L 256.00,480.00 l 160.00,0.00 l0.00-128.00 
	c 53.024,0.00, 96.00-42.976, 96.00-96.00l0.00-192.00 C 512.00,11.008, 469.024-32.00, 416.00-32.00z M 160.00,256.00L 64.00,256.00 l0.00-32.00 l 96.00,0.00 L 160.00,256.00 z M 384.00,448.00L 288.00,448.00 l0.00-96.00 l 96.00,0.00 L 384.00,448.00 z M 352.00,256.00c-53.024,0.00-96.00-43.008-96.00-96.00s 42.976-96.00, 96.00-96.00
	s 96.00,43.008, 96.00,96.00S 405.024,256.00, 352.00,256.00z M 384.00,160.00c-17.664,0.00-32.00,14.304-32.00,32.00s 14.336,32.00, 32.00,32.00c 17.696,0.00, 32.00-14.304, 32.00-32.00S 401.696,160.00, 384.00,160.00z" />
<glyph unicode="&#x3f;" d="M 224.00,480.00L 288.00,480.00L 288.00,448.00L 224.00,448.00zM 32.00,416.00L 480.00,416.00L 480.00,192.00L 32.00,192.00zM 64.00,3.776L 64.00-32.00L 81.888-32.00L 160.00,124.224L 160.00,160.00L 142.112,160.00 	zM 352.00,160.00L 352.00,124.224L 430.112-32.00L 448.00-32.00L 448.00,3.776L 369.888,160.00 	z" />
<glyph unicode="&#x40;" d="M 32.00,192.00L 32.00,416.00 l 448.00,0.00 l0.00-224.00 L 32.00,192.00 z M 128.00,384.00L 64.00,384.00 l0.00-64.00 l 64.00,0.00 L 128.00,384.00 z M 416.00,384.00l-64.00-128.00L 288.00,320.00L 224.00,224.00l 224.00,0.00 L 416.00,384.00z M 224.00,480.00l 64.00,0.00 l0.00-32.00 L 224.00,448.00 L 224.00,480.00 z M 64.00,3.776
	L 64.00-32.00 l 17.888,0.00 L 160.00,124.224L 160.00,160.00 L 142.112,160.00 L 64.00,3.776z M 352.00,160.00l0.00-35.776 L 430.112-32.00L 448.00-32.00 l0.00,35.776 L 369.888,160.00L 352.00,160.00 z" />
<glyph unicode="&#x41;" d="M 416.00,228.00C 416.00,314.144, 344.384,384.00, 256.00,384.00C 219.744,384.00, 186.688,371.808, 159.872,352.00L 72.544,352.00 
	C 113.024,409.92, 179.968,448.00, 256.00,448.00c 123.712,0.00, 224.00-100.288, 224.00-224.00l-64.416,0.00 C 415.616,225.376, 416.00,226.624, 416.00,228.00z M0.00,224.00l 64.00,96.00l 63.968-96.00L0.00,224.00 z M 256.00,72.00
	c 36.192,0.00, 69.184,12.16, 96.00,31.904L 352.00,96.00 l 87.456,0.00 c-40.512-57.92-107.424-96.00-183.456-96.00c-123.712,0.00-224.00,100.288-224.00,224.00l 64.416,0.00 C 98.624,139.744, 169.024,72.00, 256.00,72.00z
	 M 512.00,224.00l-64.00-96.00l-64.00,96.00L 512.00,224.00 z" />
<glyph unicode="&#x42;" d="M 416.00,32.00L 96.00,32.00 c-53.024,0.00-96.00,42.976-96.00,96.00L0.00,224.00 l 512.00,0.00 l0.00-96.00 C 512.00,74.976, 468.992,32.00, 416.00,32.00z M 160.00,160.00L 64.00,160.00 l0.00-64.00 l 96.00,0.00 L 160.00,160.00 z
	 M 224.00,160.00L 192.00,160.00 l0.00-64.00 l 32.00,0.00 L 224.00,160.00 z M 288.00,160.00L 256.00,160.00 l0.00-64.00 l 32.00,0.00 L 288.00,160.00 z M 96.00,384.00l 320.00,0.00 c 41.76,0.00, 76.896-26.784, 90.112-64.00L 5.888,320.00 C 19.104,357.216, 54.272,384.00, 96.00,384.00z" />
<glyph unicode="&#x43;" d="M 416.00,32.00L 96.00,32.00 c-53.024,0.00-96.00,42.976-96.00,96.00L0.00,288.00 c0.00,53.024, 42.976,96.00, 96.00,96.00l 320.00,0.00 c 52.992,0.00, 96.00-42.976, 96.00-96.00l0.00-160.00 
	C 512.00,74.976, 468.992,32.00, 416.00,32.00z M 256.00,320.00L 64.00,320.00 l0.00-224.00 l 192.00,0.00 L 256.00,320.00 z M 440.00,320.00L 288.00,320.00 l0.00-32.00 l 152.00,0.00 L 440.00,320.00 z M 440.00,256.00L 288.00,256.00 l0.00-32.00 l 152.00,0.00 L 440.00,256.00 z M 440.00,192.00L 288.00,192.00 l0.00-32.00 l 152.00,0.00 L 440.00,192.00 z M 440.00,128.00L 288.00,128.00 l0.00-32.00 l 152.00,0.00 L 440.00,128.00 z
	 M 160.00,288.00c 35.328,0.00, 64.00-21.504, 64.00-48.00S 195.328,192.00, 160.00,192.00S 96.00,213.504, 96.00,240.00S 124.672,288.00, 160.00,288.00z M 224.00,128.00L 96.00,128.00 l 64.00,64.00L 224.00,128.00z" />
<glyph unicode="&#x44;" d="M 236.736-30.016c0.00,0.00-318.016,508.00, 1.984,508.00S 236.736-30.016, 236.736-30.016z
	 M 238.752,414.016c-35.328,0.00-64.00-28.672-64.00-64.00s 28.672-64.00, 64.00-64.00c 35.36,0.00, 64.00,28.672, 64.00,64.00S 274.112,414.016, 238.752,414.016z" />
<glyph unicode="&#x45;" d="M 96.00-32.00L 96.00,384.00 l 64.00,0.00 L 160.00,480.00 l 192.00,0.00 l0.00-96.00 l 64.00,0.00 l0.00-416.00 L 96.00-32.00 z M 128.00,0.00l 224.00,0.00 l0.00,32.00 L 128.00,32.00 L 128.00,0.00 z M 128.00,128.00l 224.00,0.00 l0.00,32.00 L 128.00,160.00 L 128.00,128.00 z M 128.00,256.00l 224.00,0.00 L 352.00,288.00 L 128.00,288.00 L 128.00,256.00 z M 320.00,448.00L 192.00,448.00 
	l0.00-64.00 l 128.00,0.00 L 320.00,448.00 z M 384.00,352.00L 128.00,352.00 l0.00-32.00 l 256.00,0.00 L 384.00,352.00 z M 384.00,224.00L 128.00,224.00 l0.00-32.00 l 256.00,0.00 L 384.00,224.00 z M 384.00,96.00L 128.00,96.00 l0.00-32.00 l 256.00,0.00 L 384.00,96.00 z" />
<glyph unicode="&#x46;" d="M 64.00-32.00L 64.00,480.00 l 256.00,0.00 l0.00-128.00 l 128.00,0.00 l0.00-384.00 L 64.00-32.00 z M 352.00,480.00l 96.00-96.00l-96.00,0.00 L 352.00,480.00 z" />
<glyph unicode="&#x47;" d="M 288.00,64.00l0.00,64.00 c0.00-53.024-42.976-96.00-96.00-96.00L 96.00,32.00 c-28.32,0.00-53.504,12.512-71.104,32.00L 64.00,64.00 l0.00,32.00 L 5.888,96.00 
	C 2.304,106.048,0.00,116.704,0.00,128.00l 64.00,0.00 l0.00,32.00 L0.00,160.00 c0.00,11.296, 2.304,21.952, 5.888,32.00L 64.00,192.00 L 64.00,224.00 L 24.896,224.00 C 42.496,243.488, 67.68,256.00, 96.00,256.00l 96.00,0.00 L 192.00,340.352 C 192.00,364.448, 206.336,384.00, 224.00,384.00
	c 17.696,0.00, 32.00-19.552, 32.00-43.648l0.00-109.28 C 275.488,213.504, 288.00,188.32, 288.00,160.00L 288.00,224.00 l 192.00,0.00 l0.00-160.00 L 288.00,64.00 z" />
<glyph unicode="&#x48;" d="M 408.00-32.00L 96.00-32.00 c-53.024,0.00-96.00,46.88-96.00,104.704L0.00,247.296 C0.00,305.12, 42.976,352.00, 96.00,352.00L 96.00,384.00 l 32.00,0.00 l0.00-32.00 l 32.00,0.00 L 160.00,480.00 l 192.00,0.00 l0.00-128.00 l 32.00,0.00 
	L 384.00,384.00 l 32.00,0.00 l0.00-32.00 l-8.00,0.00 c 53.024,0.00, 96.00-46.88, 96.00-104.704l0.00-174.56 C 504.00,14.88, 461.024-32.00, 408.00-32.00z M 320.00,448.00L 192.00,448.00 l0.00-96.00 l 128.00,0.00 L 320.00,448.00 z M 448.00,288.00L 64.00,288.00 l0.00-32.00 l 384.00,0.00 L 448.00,288.00 z M 448.00,64.00L 64.00,64.00 l0.00-32.00 l 384.00,0.00 L 448.00,64.00 z" />
<glyph unicode="&#x49;" d="M 352.00,0.00l0.00-32.00 l-32.00,0.00 l0.00,32.00 L 192.00,0.00 l0.00-32.00 L 160.00-32.00 l0.00,32.00 L 96.00,0.00 L 96.00,384.00 l 32.00,0.00 l0.00-32.00 l 32.00,0.00 L 160.00,480.00 l 32.00,0.00 l 128.00,0.00 l 32.00,0.00 l0.00-128.00 l 32.00,0.00 L 384.00,384.00 l 32.00,0.00 l0.00-384.00 L 352.00,0.00 z M 320.00,448.00L 192.00,448.00 l0.00-96.00 l 32.00,0.00 L 224.00,384.00 l 64.00,0.00 l0.00-32.00 l 32.00,0.00 L 320.00,448.00 z
	 M 384.00,320.00L 128.00,320.00 l0.00-32.00 l 256.00,0.00 L 384.00,320.00 z M 384.00,192.00L 128.00,192.00 l0.00-128.00 l 256.00,0.00 L 384.00,192.00 z M 352.00,96.00L 160.00,96.00 l0.00,64.00 l 192.00,0.00 L 352.00,96.00 z" />
<glyph unicode="&#x4a;" d="M0.00-32.00L0.00,480.00 l 256.00,0.00 l0.00-64.00 L 64.00,416.00 l0.00-384.00 l 384.00,0.00 L 448.00,224.00 l 64.00,0.00 l0.00-256.00 L0.00-32.00 z M 229.472,152.224L 184.224,197.504l 209.152,209.12L 320.00,480.00l 192.00,0.00 l0.00-192.00 
	l-73.376,73.376L 229.472,152.224z" />
<glyph unicode="&#x4b;" d="M 416.00-32.00L 96.00-32.00 c-53.024,0.00-96.00,42.976-96.00,96.00L0.00,384.00 c0.00,53.024, 42.976,96.00, 96.00,96.00l 160.00,0.00 l0.00-64.00 L 160.00,416.00 C 106.976,416.00, 64.00,373.024, 64.00,320.00l0.00-192.00 
	c0.00-53.024, 42.976-96.00, 96.00-96.00l 192.00,0.00 c 52.992,0.00, 96.00,42.976, 96.00,96.00L 448.00,224.00 l 64.00,0.00 l0.00-160.00 C 512.00,10.976, 468.992-32.00, 416.00-32.00z M 229.472,152.224L 184.224,197.504l 209.152,209.12L 320.00,480.00l 192.00,0.00 l0.00-192.00 
	l-73.376,73.376L 229.472,152.224z" />
<glyph unicode="&#x4c;" d="M 416.00-32.00l-32.00,0.00 l0.00,96.00 L 128.00,64.00 l0.00-96.00 L 96.00-32.00 c-53.024,0.00-96.00,42.976-96.00,96.00L0.00,224.00 c0.00,53.024, 42.976,96.00, 96.00,96.00l 64.00,0.00 L 160.00,480.00 l 128.00,0.00 l0.00-32.00 L 192.00,448.00 l0.00-128.00 l 128.00,0.00 L 320.00,416.00 l 32.00,0.00 
	l0.00-96.00 l 64.00,0.00 c 52.992,0.00, 96.00-42.976, 96.00-96.00l0.00-160.00 C 512.00,10.976, 468.992-32.00, 416.00-32.00z M 448.00,256.00l-96.00,0.00 l0.00-64.00 l 96.00,0.00 L 448.00,256.00 z M 288.00,448.00l 32.00,0.00 l0.00-32.00 L 288.00,416.00 L 288.00,448.00 z M 352.00-32.00L 160.00-32.00 l0.00,64.00 l 192.00,0.00 L 352.00-32.00 z" />
<glyph unicode="&#x4d;" d="M 480.00,192.00c0.00-53.024-43.008-96.00-96.00-96.00L 96.00,96.00 c-53.024,0.00-96.00,42.976-96.00,96.00L0.00,256.00 c0.00,53.024, 42.976,96.00, 96.00,96.00l 288.00,0.00 
	c 52.992,0.00, 96.00-42.976, 96.00-96.00l 32.00,0.00 l0.00-64.00 L 480.00,192.00 z M 352.00,320.00L 128.00,320.00 C 74.976,320.00, 32.00,277.024, 32.00,224.00s 42.976-96.00, 96.00-96.00l 224.00,0.00 c 52.992,0.00, 96.00,42.976, 96.00,96.00S 404.992,320.00, 352.00,320.00z M 368.00,160.00
	c-26.496,0.00-16.00,0.00-48.00,0.00L 320.00,288.00 c 32.00,0.00, 21.504,0.00, 48.00,0.00S 416.00,265.056, 416.00,236.80L 416.00,211.20 C 416.00,182.912, 394.496,160.00, 368.00,160.00z M 192.00,288.00l 96.00,0.00 l0.00-128.00 L 192.00,160.00 L 192.00,288.00 z M 64.00,211.20L 64.00,236.80 
	C 64.00,265.056, 85.472,288.00, 112.00,288.00S 128.00,288.00, 160.00,288.00l0.00-128.00 c-32.00,0.00-21.472,0.00-48.00,0.00S 64.00,182.912, 64.00,211.20z" />
<glyph unicode="&#x4e;" d="M 480.00,192.00c0.00-53.024-42.976-96.00-96.00-96.00L 96.00,96.00 c-53.024,0.00-96.00,42.976-96.00,96.00L0.00,256.00 c0.00,53.024, 42.976,96.00, 96.00,96.00l 288.00,0.00 
	c 53.024,0.00, 96.00-42.976, 96.00-96.00l 32.00,0.00 l0.00-64.00 L 480.00,192.00 z M 352.00,320.00L 128.00,320.00 C 74.976,320.00, 32.00,277.024, 32.00,224.00s 42.976-96.00, 96.00-96.00l 224.00,0.00 c 53.024,0.00, 96.00,42.976, 96.00,96.00S 405.024,320.00, 352.00,320.00z M 64.00,211.20L 64.00,236.80 
	C 64.00,265.056, 85.504,288.00, 112.00,288.00S 128.00,288.00, 160.00,288.00l0.00-128.00 c-32.00,0.00-21.504,0.00-48.00,0.00S 64.00,182.912, 64.00,211.20z" />
<glyph unicode="&#x4f;" d="M 480.00,192.00c0.00-53.024-42.976-96.00-96.00-96.00L 96.00,96.00 c-53.024,0.00-96.00,42.976-96.00,96.00L0.00,256.00 c0.00,53.024, 42.976,96.00, 96.00,96.00l 288.00,0.00 
	c 53.024,0.00, 96.00-42.976, 96.00-96.00l 32.00,0.00 l0.00-64.00 L 480.00,192.00 z M 352.00,320.00L 128.00,320.00 C 74.976,320.00, 32.00,277.024, 32.00,224.00s 42.976-96.00, 96.00-96.00l 224.00,0.00 c 53.024,0.00, 96.00,42.976, 96.00,96.00S 405.024,320.00, 352.00,320.00z M 192.00,288.00l 96.00,0.00 l0.00-128.00 L 192.00,160.00 L 192.00,288.00 z M 64.00,211.20
	L 64.00,236.80 C 64.00,265.056, 85.504,288.00, 112.00,288.00S 128.00,288.00, 160.00,288.00l0.00-128.00 c-32.00,0.00-21.504,0.00-48.00,0.00S 64.00,182.912, 64.00,211.20z" />
<glyph unicode="&#x50;" d="M 512.00,160.00l0.00-64.00 l-128.00,0.00 l0.00-128.00 l-64.00,0.00 l0.00,128.00 L 192.00,96.00 l0.00-128.00 L 128.00-32.00 l0.00,128.00 L0.00,96.00 l0.00,64.00 l 128.00,0.00 L 128.00,288.00 L0.00,288.00 L0.00,352.00 l 128.00,0.00 L 128.00,480.00 l 64.00,0.00 l0.00-128.00 l 128.00,0.00 L 320.00,480.00 l 64.00,0.00 l0.00-128.00 l 128.00,0.00 l0.00-64.00 l-128.00,0.00 l0.00-128.00 L 512.00,160.00 z M 320.00,288.00L 192.00,288.00 
	l0.00-128.00 l 128.00,0.00 L 320.00,288.00 z" />
<glyph unicode="&#x51;" d="M 32.00,320.00L 32.00,384.00 l 128.00,0.00 L 160.00,480.00 l 192.00,0.00 l0.00-96.00 l 128.00,0.00 l0.00-64.00 L 32.00,320.00 z M 320.00,448.00L 192.00,448.00 l0.00-64.00 l 128.00,0.00 L 320.00,448.00 z M 416.00,64.00c0.00-53.024-42.976-96.00-96.00-96.00L 192.00-32.00 
	c-53.024,0.00-96.00,42.976-96.00,96.00L 96.00,288.00 l 320.00,0.00 L 416.00,64.00 z M 192.00,256.00L 128.00,256.00 l0.00-224.00 l 64.00,0.00 L 192.00,256.00 z M 288.00,256.00L 224.00,256.00 l0.00-224.00 l 64.00,0.00 L 288.00,256.00 z M 384.00,256.00l-64.00,0.00 l0.00-224.00 l 64.00,0.00 L 384.00,256.00 z" />
<glyph unicode="&#x52;" d="M 448.00,160.00L 448.00,384.00 L 160.00,384.00 L 160.00,480.00 L 64.00,480.00 l0.00-96.00 L0.00,384.00 l0.00-96.00 l 64.00,0.00 l0.00-224.00 l 288.00,0.00 l0.00-96.00 l 96.00,0.00 l0.00,96.00 l 64.00,0.00 l0.00,96.00 L 448.00,160.00 z M 352.00,160.00L 160.00,160.00 L 160.00,288.00 l 192.00,0.00 L 352.00,160.00 z" />
<glyph unicode="&#x53;" d="M 37.728,171.264C 25.344,268.992, 62.56,334.144, 132.32,357.44s 99.264-17.056, 128.704-17.056
	c 29.472,0.00, 35.68,23.296, 100.80,23.296s 102.336-51.232, 102.336-51.232s-58.912-35.68-58.912-103.968c0.00-68.256, 72.864-100.832, 71.328-100.832
	C 453.344,30.048, 391.296-32.00, 355.648-32.00c-35.68,0.00-51.20,23.264-89.984,23.264C 226.912-8.736, 212.96-32.00, 171.104-32.00S 50.144,73.504, 37.728,171.264z
	 M 253.28,359.008C 245.536,422.592, 309.088,476.896, 357.184,480.00C 371.168,425.728, 318.40,352.768, 253.28,359.008z" />
<glyph unicode="&#x54;" d="M 512.00,64.00L 512.00,352.00 L 64.00,352.00 L 64.00,480.00 L0.00,480.00 l0.00-32.00 l 32.00,0.00 l0.00-384.00 l 64.00,0.00 l0.00-96.00 l 64.00,0.00 l0.00,64.00 L 128.00,32.00 l0.00,32.00 l 256.00,0.00 l0.00-96.00 l 64.00,0.00 l0.00,64.00 l-32.00,0.00 l0.00,32.00 L 512.00,64.00 z M 160.00,128.00L 96.00,128.00 l0.00,32.00 l 64.00,0.00 L 160.00,128.00 z M 160.00,192.00L 96.00,192.00 
	L 96.00,224.00 l 64.00,0.00 L 160.00,192.00 z M 160.00,256.00L 96.00,256.00 L 96.00,288.00 l 64.00,0.00 L 160.00,256.00 z M 256.00,128.00L 192.00,128.00 l0.00,32.00 l 64.00,0.00 L 256.00,128.00 z M 256.00,192.00L 192.00,192.00 L 192.00,224.00 l 64.00,0.00 L 256.00,192.00 z M 256.00,256.00L 192.00,256.00 L 192.00,288.00 l 64.00,0.00 L 256.00,256.00 z M 352.00,128.00L 288.00,128.00 l0.00,32.00 l 64.00,0.00 L 352.00,128.00 z M 352.00,192.00L 288.00,192.00 L 288.00,224.00 l 64.00,0.00 L 352.00,192.00 z M 352.00,256.00L 288.00,256.00 L 288.00,288.00 l 64.00,0.00 L 352.00,256.00 z M 384.00,288.00l 64.00,0.00 l0.00-32.00 l-64.00,0.00 
	L 384.00,288.00 z M 384.00,224.00l 64.00,0.00 l0.00-32.00 l-64.00,0.00 L 384.00,224.00 z M 384.00,128.00l0.00,32.00 l 64.00,0.00 l0.00-32.00 L 384.00,128.00 z" />
<glyph unicode="&#x55;" d="M 320.00-32.00L 320.00,480.00 l 192.00,0.00 l0.00-512.00 L 320.00-32.00 z M0.00,480.00l 192.00,0.00 l0.00-512.00 L0.00-32.00 L0.00,480.00 z" />
<glyph unicode="&#x56;" d="M-0.512,480.00l 512.992-255.008L 0.512-32.00L-0.512,480.00z" />
<glyph unicode="&#x57;" d="M 512.512,224.512l-256.992-256.00L 255.52,223.488 l-256.00-255.008L-0.48,479.488 l 256.00-254.016L 255.52,479.488 L 512.512,224.512z" />
<glyph unicode="&#x58;" d="M 512.512-31.488l-256.00,255.008l0.00-255.008 l-256.992,256.00l 256.992,255.008l0.00-254.016 l 256.00,254.016L 512.512-31.488 z" />
<glyph unicode="&#x59;" d="M 384.512-32.00L 384.512,224.992 L 384.512,480.00 l 128.00,0.00 l0.00-512.00 L 384.512-32.00 z M-0.512,480.00l 384.992-255.008l-384.992-256.00L-0.512,480.00 z" />
<glyph unicode="&#x5a;" d="M 127.488,224.992L 512.512,480.00l0.00-511.008 L 127.488,224.992z M-0.512-32.00L-0.512,480.00 l 128.00,0.00 l0.00-255.008 L 127.488-32.00 L-0.512-32.00 z" />
<glyph unicode="&#x5b;" d="M 416.00-32.00L 96.00-32.00 c-53.024,0.00-96.00,42.976-96.00,96.00L0.00,384.00 c0.00,53.024, 42.976,96.00, 96.00,96.00l 320.00,0.00 c 53.024,0.00, 96.00-42.976, 96.00-96.00l0.00-320.00 
	C 512.00,10.976, 469.024-32.00, 416.00-32.00z M 256.00,320.00C 202.976,320.00, 160.00,277.024, 160.00,224.00s 42.976-96.00, 96.00-96.00s 96.00,42.976, 96.00,96.00S 309.024,320.00, 256.00,320.00z" />
<glyph unicode="&#x5c;" d="M0.00-32.00l0.00,128.00 l 512.00,0.00 l0.00-128.00 L0.00-32.00 z M 256.00,480.00l 255.936-319.936L 0.064,160.064 L 256.00,480.00z" />
<glyph unicode="&#x5d;" d="M0.00-32.00l0.00,128.00 l 99.552,0.00 l 312.864,0.00 L 512.00,96.00 l0.00-128.00 L0.00-32.00 z M 256.00,160.00c 35.328,0.00, 64.00,28.672, 64.00,64.00S 291.328,288.00, 256.00,288.00S 192.00,259.328, 192.00,224.00
	S 220.672,160.00, 256.00,160.00L 54.464,160.00 C 40.448,189.152, 32.00,221.472, 32.00,256.00c0.00,123.712, 100.288,224.00, 224.00,224.00s 224.00-100.288, 224.00-224.00c0.00-34.528-8.448-66.848-22.432-96.00L 256.00,160.00 z" />
<glyph unicode="&#x5e;" d="M 352.00,224.00L 352.00,256.00 l 128.00,0.00 l0.00-32.00 L 352.00,224.00 z M 384.00,480.00l 64.00,0.00 l0.00-192.00 l-64.00,0.00 L 384.00,480.00 z M 192.00,96.00l 128.00,0.00 l0.00-32.00 L 192.00,64.00 L 192.00,96.00 z M 224.00,480.00l 64.00,0.00 l0.00-352.00 L 224.00,128.00 L 224.00,480.00 z M 32.00,384.00l 128.00,0.00 l0.00-32.00 L 32.00,352.00 L 32.00,384.00 z
	 M 64.00,480.00l 64.00,0.00 l0.00-64.00 L 64.00,416.00 L 64.00,480.00 z M 128.00-32.00L 64.00-32.00 L 64.00,320.00 l 64.00,0.00 L 128.00-32.00 z M 288.00-32.00L 224.00-32.00 l0.00,64.00 l 64.00,0.00 L 288.00-32.00 z M 448.00-32.00l-64.00,0.00 L 384.00,192.00 l 64.00,0.00 L 448.00-32.00 z" />
<glyph unicode="&#x5f;" d="M 416.00,64.00l0.00-32.00 l 32.00,0.00 l0.00-32.00 L 288.00,0.00 l0.00,32.00 l 32.00,0.00 l0.00,32.00 L 224.00,64.00 L 224.00,288.00 l 288.00,0.00 l0.00-224.00 L 416.00,64.00 z M 480.00,256.00L 256.00,256.00 l0.00-160.00 l 224.00,0.00 L 480.00,256.00 z M 288.00,128.00L 288.00,224.00 l 96.00,0.00 L 288.00,128.00z M0.00,416.00l 160.00,0.00 l0.00-416.00 L0.00,0.00 L0.00,416.00 
	z M 32.00,128.00l 32.00,0.00 l0.00,32.00 L 32.00,160.00 L 32.00,128.00 z M 32.00,256.00l 96.00,0.00 L 128.00,288.00 L 32.00,288.00 L 32.00,256.00 z M 32.00,320.00l 96.00,0.00 L 128.00,352.00 L 32.00,352.00 L 32.00,320.00 z" />
<glyph unicode="&#x60;" d="M 448.00,160.00c-35.328,0.00-64.00,28.672-64.00,64.00s 28.672,64.00, 64.00,64.00s 64.00-28.672, 64.00-64.00S 483.328,160.00, 448.00,160.00z M 448.00,352.00
	c-35.328,0.00-64.00,28.672-64.00,64.00s 28.672,64.00, 64.00,64.00s 64.00-28.672, 64.00-64.00S 483.328,352.00, 448.00,352.00z M 448.00,448.00c-17.696,0.00-32.00-14.304-32.00-32.00s 14.304-32.00, 32.00-32.00s 32.00,14.304, 32.00,32.00S 465.696,448.00, 448.00,448.00z
	 M 256.00-32.00c-35.328,0.00-64.00,28.672-64.00,64.00s 28.672,64.00, 64.00,64.00s 64.00-28.672, 64.00-64.00S 291.328-32.00, 256.00-32.00z M 256.00,64.00c-17.664,0.00-32.00-14.304-32.00-32.00s 14.336-32.00, 32.00-32.00c 17.696,0.00, 32.00,14.304, 32.00,32.00
	S 273.696,64.00, 256.00,64.00z M 256.00,160.00c-35.328,0.00-64.00,28.672-64.00,64.00s 28.672,64.00, 64.00,64.00s 64.00-28.672, 64.00-64.00S 291.328,160.00, 256.00,160.00z M 256.00,256.00C 238.336,256.00, 224.00,241.664, 224.00,224.00c0.00-17.696, 14.336-32.00, 32.00-32.00
	c 17.696,0.00, 32.00,14.304, 32.00,32.00C 288.00,241.664, 273.696,256.00, 256.00,256.00z M 256.00,352.00C 220.672,352.00, 192.00,380.672, 192.00,416.00s 28.672,64.00, 64.00,64.00s 64.00-28.672, 64.00-64.00S 291.328,352.00, 256.00,352.00z M 256.00,448.00
	C 238.336,448.00, 224.00,433.696, 224.00,416.00s 14.336-32.00, 32.00-32.00c 17.696,0.00, 32.00,14.304, 32.00,32.00S 273.696,448.00, 256.00,448.00z M 64.00-32.00c-35.328,0.00-64.00,28.672-64.00,64.00s 28.672,64.00, 64.00,64.00s 64.00-28.672, 64.00-64.00
	S 99.328-32.00, 64.00-32.00z M 64.00,64.00c-17.664,0.00-32.00-14.304-32.00-32.00s 14.336-32.00, 32.00-32.00s 32.00,14.304, 32.00,32.00S 81.664,64.00, 64.00,64.00z M 64.00,160.00c-35.328,0.00-64.00,28.672-64.00,64.00s 28.672,64.00, 64.00,64.00
	s 64.00-28.672, 64.00-64.00S 99.328,160.00, 64.00,160.00z M 64.00,256.00C 46.336,256.00, 32.00,241.664, 32.00,224.00c0.00-17.696, 14.336-32.00, 32.00-32.00s 32.00,14.304, 32.00,32.00C 96.00,241.664, 81.664,256.00, 64.00,256.00z M 64.00,352.00
	C 28.672,352.00,0.00,380.672,0.00,416.00s 28.672,64.00, 64.00,64.00s 64.00-28.672, 64.00-64.00S 99.328,352.00, 64.00,352.00z M 64.00,448.00C 46.336,448.00, 32.00,433.696, 32.00,416.00s 14.336-32.00, 32.00-32.00s 32.00,14.304, 32.00,32.00S 81.664,448.00, 64.00,448.00z M 448.00,96.00
	c 35.328,0.00, 64.00-28.672, 64.00-64.00s-28.672-64.00-64.00-64.00s-64.00,28.672-64.00,64.00S 412.672,96.00, 448.00,96.00z M 448.00,0.00c 17.696,0.00, 32.00,14.304, 32.00,32.00s-14.304,32.00-32.00,32.00s-32.00-14.304-32.00-32.00
	S 430.304,0.00, 448.00,0.00z" />
<glyph unicode="&#x61;" d="M 416.00-32.00L 96.00-32.00 c-53.024,0.00-96.00,42.976-96.00,96.00L0.00,224.00 c0.00,53.024, 42.976,96.00, 96.00,96.00l 128.00,128.00c0.00,17.664, 14.336,32.00, 32.00,32.00
	c 17.696,0.00, 32.00-14.336, 32.00-32.00l 128.00-128.00c 52.992,0.00, 96.00-42.976, 96.00-96.00l0.00-160.00 C 512.00,10.976, 468.992-32.00, 416.00-32.00z M 256.00,416.00L 160.00,320.00l 192.00,0.00 L 256.00,416.00z M 448.00,256.00L 64.00,256.00 l0.00-224.00 l 384.00,0.00 L 448.00,256.00 z" />
<glyph unicode="&#x62;" d="M 416.00-32.00L 96.00-32.00 c-53.024,0.00-96.00,40.288-96.00,89.984L0.00,358.016 C0.00,407.712, 42.976,448.00, 96.00,448.00l 64.00,0.00 l0.00-64.00 l 192.00,0.00 L 352.00,448.00 l 64.00,0.00 
	c 53.024,0.00, 96.00-40.288, 96.00-89.984l0.00-300.00 C 512.00,8.288, 469.024-32.00, 416.00-32.00z M 255.488,320.00C 202.752,320.00, 160.00,277.248, 160.00,224.512s 42.752-95.488, 95.488-95.488
	s 95.488,42.752, 95.488,95.488S 308.256,320.00, 255.488,320.00z M 256.00,128.00l-95.968-128.00l 191.936,0.00 L 256.00,128.00z M 192.00,480.00l 32.00,0.00 l0.00-32.00 l 64.00,0.00 L 288.00,480.00 l 32.00,0.00 l0.00-64.00 L 192.00,416.00 L 192.00,480.00 z" />
<glyph unicode="&#x63;" d="M0.00,480.00L 32.00,480.00L 32.00,448.00L0.00,448.00zM 32.00,96.00L 32.00,64.00L 64.00,64.00L 64.00,32.00L 96.00,32.00L 96.00,0.00L 128.00,0.00L 128.00,96.00 	zM 32.00,32.00L 64.00,32.00L 64.00,0.00L 32.00,0.00zM0.00,0.00L 32.00,0.00L 32.00-32.00L0.00-32.00zM 96.00,448.00L 96.00,416.00L 64.00,416.00L 64.00,384.00L 32.00,384.00L 32.00,352.00L 128.00,352.00L 128.00,448.00 	zM 32.00,448.00L 64.00,448.00L 64.00,416.00L 32.00,416.00zM 448.00,32.00L 480.00,32.00L 480.00,0.00L 448.00,0.00zM 448.00,448.00L 480.00,448.00L 480.00,416.00L 448.00,416.00zM 448.00,384.00L 448.00,416.00L 416.00,416.00L 416.00,448.00L 384.00,448.00L 384.00,352.00L 480.00,352.00L 480.00,384.00 	zM 384.00,256.00c0.00,53.024-42.976,96.00-96.00,96.00L 224.00,352.00 C 170.976,352.00, 128.00,309.024, 128.00,256.00l0.00-64.00 c0.00-53.024, 42.976-96.00, 96.00-96.00l 64.00,0.00 c 53.024,0.00, 96.00,42.976, 96.00,96.00L 384.00,256.00 zM 480.00,480.00L 512.00,480.00L 512.00,448.00L 480.00,448.00zM 480.00,0.00L 512.00,0.00L 512.00-32.00L 480.00-32.00zM 384.00,96.00L 384.00,0.00L 416.00,0.00L 416.00,32.00L 448.00,32.00L 448.00,64.00L 480.00,64.00L 480.00,96.00 	z" />
<glyph unicode="&#x64;" d="M 64.00,64.00L 96.00,64.00L 96.00,32.00L 64.00,32.00zM0.00,480.00L0.00,384.00L 32.00,384.00L 32.00,416.00L 64.00,416.00L 64.00,448.00L 96.00,448.00L 96.00,480.00 	zM 64.00,0.00L 64.00,32.00L 32.00,32.00L 32.00,64.00L0.00,64.00L0.00-32.00L 96.00-32.00L 96.00,0.00 	zM 96.00,384.00L 128.00,384.00L 128.00,352.00L 96.00,352.00zM 64.00,416.00L 96.00,416.00L 96.00,384.00L 64.00,384.00zM 96.00,96.00L 128.00,96.00L 128.00,64.00L 96.00,64.00zM 384.00,384.00L 416.00,384.00L 416.00,352.00L 384.00,352.00zM 480.00,64.00L 480.00,32.00L 448.00,32.00L 448.00,0.00L 416.00,0.00L 416.00-32.00L 512.00-32.00L 512.00,64.00 	zM 416.00,416.00L 448.00,416.00L 448.00,384.00L 416.00,384.00zM 416.00,480.00L 416.00,448.00L 448.00,448.00L 448.00,416.00L 480.00,416.00L 480.00,384.00L 512.00,384.00L 512.00,480.00 	zM 384.00,96.00L 416.00,96.00L 416.00,64.00L 384.00,64.00zM 416.00,64.00L 448.00,64.00L 448.00,32.00L 416.00,32.00zM 384.00,256.00c0.00,53.024-42.976,96.00-96.00,96.00L 224.00,352.00 C 170.976,352.00, 128.00,309.024, 128.00,256.00l0.00-64.00 c0.00-53.024, 42.976-96.00, 96.00-96.00l 64.00,0.00 c 53.024,0.00, 96.00,42.976, 96.00,96.00L 384.00,256.00 z" />
<glyph unicode="&#x65;" d="M 480.00,96.00L 480.00,256.00 L 288.00,256.00 L 288.00,352.00 l 32.00,0.00 L 320.00,480.00 L 192.00,480.00 l0.00-128.00 l 32.00,0.00 l0.00-96.00 L 32.00,256.00 l0.00-160.00 L0.00,96.00 l0.00-128.00 l 128.00,0.00 l0.00,128.00 L 96.00,96.00 L 96.00,192.00 l 128.00,0.00 l0.00-96.00 L 192.00,96.00 l0.00-128.00 l 128.00,0.00 l0.00,128.00 L 288.00,96.00 L 288.00,192.00 l 128.00,0.00 l0.00-96.00 l-32.00,0.00 l0.00-128.00 l 128.00,0.00 l0.00,128.00 L 480.00,96.00 z
	 M 96.00,0.00L 32.00,0.00 l0.00,64.00 l 64.00,0.00 L 96.00,0.00 z M 288.00,0.00L 224.00,0.00 l0.00,64.00 l 64.00,0.00 L 288.00,0.00 z M 224.00,384.00L 224.00,448.00 l 64.00,0.00 l0.00-64.00 L 224.00,384.00 z M 480.00,0.00l-64.00,0.00 l0.00,64.00 l 64.00,0.00 L 480.00,0.00 z" />
<glyph unicode="&#x66;" d="M 352.00,96.00l0.00-96.00 l-64.00,64.00l-128.00-96.00L0.00,480.00l 512.00-320.00L 352.00,96.00z M 64.00,416.00l 224.00-288.00l 24.00-56.00L 320.00,64.00l 32.00,64.00L 64.00,416.00z" />
</font>
</defs>
</svg>
